8wDlpd.png
8wDFp9.png
8wDEOx.png
8wDMfH.png
8wDKte.png

添加国语音轨 蜘蛛侠 系列1《蜘蛛侠1》4K REMUX 原盘提取 无损封装 封装国语音轨 特效字幕【54.1GB】 欧美 动作 科幻

等级:78 级 78 级 yuntu 13天前 36



fr om w ww.yun pan zi yuan.co m

片  名:      蜘蛛侠 4k fr om w ww.yun pan zi yuan.co m

电影分类:      动作   科幻   冒险  

国  家:      美国

年  代:      90年代

分 辨 率:      4K(3840x2160)

电影格式:      MKV(REMUX)   M2TS(原盘BDMV)

画质标准:      HDR10

音质编码:      Dolby-Atmos   Dolby-TrueHD   Dolby Digital Audio   DTS-HD Master Audio  

电影声道:      7.1声道    5.1声道   

帧数/FPS:      23.976

电影语言:      英文原版

资源大小:      61 GB

导  演:      山姆·雷米

剧情简介:      彼得 帕克(托比•马奎尔 Tobey Maguire 饰)只是美国一个平凡的高中生,当一次他被蜘蛛博物馆偷跑出来的变种蜘蛛咬了一口之后,彼得的生活彻底改变了。他变得和蜘蛛一样,拥有各种蜘蛛特有的超能力:从手指喷出粘力极强的蜘蛛丝、飞檐走壁等等。彼得兴奋异常,开始利用自己的超能力去赚钱。但当他最爱的叔叔被自己放走的罪犯杀死后,彼得发誓要用自己的超能力去打击犯罪。

  彼得好友哈利的父亲诺曼(威廉•达福 Willem Dafoe 饰)是一家生物科技公司的老板,因自己公司生产的飞行器没得到军方首脑赏识而苦恼不堪。一次意外诺曼吸入神经毒气而具有了超能力,引发了自身邪恶的本性,骑着自己研发的飞行器去到处破坏、杀人。彼得化身的蜘蛛侠开始出击了

 

版本来源

Spider-Man.2002.UHD.Blu-ray.2160p.HEVC.Atmos.TrueHD.7.1 特效简繁双语四字幕+国语DTS HD7.14K DIY原盘BDMV 61GB

 

原盘提取 无损封装 封装国语音轨 特效字幕

 

云盘链接:https://www.aliyundrive.com/s/oWEmSPxPaVP

 

 










General

Unique ID                      : 25485856770825702696272570855336309338 (0x132C65C0AE5A55262C07458CEC11F25A)

Complete name                  : D:\影视\蜘蛛侠 系列 国语音轨\蜘蛛侠1 4K 国语音轨\Man.2002.UHD.Bluray.2160p.HEVC.en&zh.TrueHD.7.1.mkv

Format                         : Matroska

Format version                 : Version 4

File size                      : 54.1 GiB

Duration                       : 2 h 1 min

Overall bit rate mode          : Variable

Overall bit rate               : 63.9 Mb/s

Movie name                     : Spider-Man (2002)

Encoded date                   : UTC 2022-08-02 14:34:45

Writing application            : mkvmerge v69.0.0 ('Day And Age') 64-bit

Writing library                : libebml v1.4.2 + libmatroska v1.6.4

 

Video

ID                             : 1

ID in the original source medi : 4113 (0x1011)

Format                         : HEVC

Format/Info                    : High Efficiency Video Coding

Format profile                 : Main 10@L5.1@High

HDR format                     : SMPTE ST 2086, HDR10 compatible

Codec ID                       : V_MPEGH/ISO/HEVC

Duration                       : 2 h 1 min

Bit rate                       : 48.5 Mb/s

Width                          : 3 840 pixels

Height                         : 2 160 pixels

Display aspect ratio           : 16:9

Frame rate mode                : Constant

Frame rate                     : 23.976 (24000/1001) FPS

Color space                    : YUV

Chroma subsampling             : 4:2:0 (Type 2)

Bit depth                      : 10 bits

Bits/(Pixel*Frame)             : 0.244

Stream size                    : 41.0 GiB (76%)

Language                       : English

Default                        : Yes

Forced                         : No

Color range                    : Limited

Color primaries                : BT.2020

Transfer characteristics       : PQ

Matrix coefficients            : BT.2020 non-constant

Mastering display color primar : Display P3

Mastering display luminance    : min: 0.0050 cd/m2, max: 4000 cd/m2

Maximum Content Light Level    : 9953 cd/m2

Maximum Frame-Average Light Le : 1478 cd/m2

Original source medium         : Blu-ray

 

Audio #1

ID                             : 2

ID in the original source medi : 4352 (0x1100)

Format                         : MLP FBA 16-ch

Format/Info                    : Meridian Lossless Packing FBA with 16-channel presentation

Commercial name                : Dolby TrueHD with Dolby Atmos

Codec ID                       : A_TRUEHD

Duration                       : 2 h 1 min

Bit rate mode                  : Variable

Bit rate                       : 5 547 kb/s

Maximum bit rate               : 8 487 kb/s

Channel(s)                     : 8 channels

Channel layout                 : L R C LFE Ls Rs Lb Rb

Sampling rate                  : 48.0 kHz

Frame rate                     : 1 200.000 FPS (40 SPF)

Bit depth                      : 24 bits

Compression mode               : Lossless

Stream size                    : 4.70 GiB (9%)

Title                          : TrueHD 7.1

Language                       : English

Default                        : Yes

Forced                         : No

Original source medium         : Blu-ray

Number of dynamic objects      : 11

Bed channel count              : 1 channel

Bed channel configuration      : LFE

 

Audio #2

ID                             : 3

ID in the original source medi : 4353 (0x1101)

Format                         : DTS XLL

Format/Info                    : Digital Theater Systems

Commercial name                : DTS-HD Master Audio

Codec ID                       : A_DTS

Duration                       : 2 h 1 min

Bit rate mode                  : Variable

Bit rate                       : 2 353 kb/s

Channel(s)                     : 6 channels

Channel layout                 : C L R Ls Rs LFE

Sampling rate                  : 48.0 kHz

Frame rate                     : 93.750 FPS (512 SPF)

Bit depth                      : 16 bits

Compression mode               : Lossless

Stream size                    : 1.99 GiB (4%)

Title                          : DTS-HD MA  5.1

Language                       : English

Default                        : No

Forced                         : No

Original source medium         : Blu-ray

 

Audio #3

ID                             : 4

ID in the original source medi : 4355 (0x1103)

Format                         : DTS XLL

Format/Info                    : Digital Theater Systems

Commercial name                : DTS-HD Master Audio

Codec ID                       : A_DTS

Duration                       : 2 h 1 min

Bit rate mode                  : Variable

Bit rate                       : 5 560 kb/s

Channel(s)                     : 8 channels

Channel layout                 : C L R LFE Lb Rb Lss Rss

Sampling rate                  : 48.0 kHz

Frame rate                     : 93.750 FPS (512 SPF)

Bit depth                      : 24 bits

Compression mode               : Lossless

Stream size                    : 4.71 GiB (9%)

Title                          : 国语 DTS-HD MA  7.1

Language                       : Chinese

Default                        : No

Forced                         : No

Original source medium         : Blu-ray

 

Audio #4

ID                             : 5

ID in the original source medi : 4355 (0x1103)

Format                         : DTS

Format/Info                    : Digital Theater Systems

Codec ID                       : A_DTS

Duration                       : 2 h 1 min

Bit rate mode                  : Constant

Bit rate                       : 1 509 kb/s

Channel(s)                     : 6 channels

Channel layout                 : C L R Ls Rs LFE

Sampling rate                  : 48.0 kHz

Frame rate                     : 93.750 FPS (512 SPF)

Bit depth                      : 24 bits

Compression mode               : Lossy

Stream size                    : 1.28 GiB (2%)

Title                          : 国语 DTS  5.1

Language                       : Chinese

Default                        : No

Forced                         : No

Original source medium         : Blu-ray

 

Text #1

ID                             : 6

ID in the original source medi : 4775 (0x12A7)

Format                         : PGS

Codec ID                       : S_HDMV/PGS

Codec ID/Info                  : Picture based subtitle format used on BDs/HD-DVDs

Duration                       : 1 h 55 min

Bit rate                       : 147 kb/s

Count of elements              : 7500

Stream size                    : 121 MiB (0%)

Title                          : 简中特效

Language                       : Chinese

Default                        : No

Forced                         : No

Original source medium         : Blu-ray

 

Text #2

ID                             : 7

ID in the original source medi : 4777 (0x12A9)

Format                         : PGS

Codec ID                       : S_HDMV/PGS

Codec ID/Info                  : Picture based subtitle format used on BDs/HD-DVDs

Duration                       : 1 h 55 min

Bit rate                       : 174 kb/s

Count of elements              : 6492

Stream size                    : 143 MiB (0%)

Title                          : 简英特效

Language                       : Chinese

Default                        : No

Forced                         : No

Original source medium         : Blu-ray

 

Text #3

ID                             : 8

Format                         : PGS

Codec ID                       : S_HDMV/PGS

Codec ID/Info                  : Picture based subtitle format used on BDs/HD-DVDs

Duration                       : 1 h 54 min

Bit rate                       : 26.2 kb/s

Count of elements              : 2544

Stream size                    : 21.5 MiB (0%)

Title                          : 国配简体

Language                       : Chinese

Default                        : No

Forced                         : No

 

Menu

00:00:00.000                   : en:Chapter 01

00:06:29.180                   : en:Chapter 02

00:14:55.853                   : en:Chapter 03

00:21:53.395                   : en:Chapter 04

00:25:18.683                   : en:Chapter 05

00:34:35.073                   : en:Chapter 06

00:40:22.169                   : en:Chapter 07

00:43:13.882                   : en:Chapter 08

00:54:32.644                   : en:Chapter 09

01:00:48.936                   : en:Chapter 10

01:04:20.773                   : en:Chapter 11

01:12:12.369                   : en:Chapter 12

01:19:35.228                   : en:Chapter 13

01:25:13.608                   : en:Chapter 14

01:39:37.096                   : en:Chapter 15

01:45:08.135                   : en:Chapter 16

 



免责声明
1,本站所有内容均为站内网盘爱好者分享发布的网盘链接介绍展示帖子,本站不存储任何实质资源数据
2,本文内容仅代表作者本人观点,不代表本网站立场,作者文责自负。
3,本文内所有链接指向的云盘网盘资源,其版权归版权方所有!其实际管理权为帖子发布者所有,本站无法操作相关资源。
4,如您认为本站任何介绍帖侵犯了您的合法版权,请点击 版权投诉 进行投诉,我们将在确认本文链接指向的资源存在侵权后,立即删除相关介绍帖子!
专注高清资源 不停洗版
最新回复 (0)
返回
发 布 分 享
相关资源推荐