8wDlpd.png
8wDFp9.png
8wDEOx.png
8wDMfH.png
8wDKte.png

添加国语音轨 蜘蛛侠 系列2《蜘蛛侠2》4K REMUX 无损封装 封装国语音轨 特效字幕【51.8GB】 欧美 动作 科幻

等级:78 级 78 级 yuntu 13天前 41



fr om w ww.yun pan zi yuan.co m

片  名:      蜘蛛侠2 4k fr om w ww.yun pan zi yuan.co m

电影分类:      动作   科幻   冒险  

国  家:      美国

年  代:      90年代

分 辨 率:      4K(3840x2160)

电影格式:      MKV(REMUX)   M2TS(原盘BDMV)

画质标准:      HDR

音质编码:      Dolby-Atmos   Dolby Digital Audio   DTS-HD Master Audio   DTS Audio   

电影声道:      7.1声道    5.1声道   

帧数/FPS:      23.976

电影语言:      英文原版

资源大小:      55.81 GB

导  演:      山姆·雷米

剧情简介:      大战绿妖之后,蜘蛛侠帕克(托比•马奎尔 Tobey Maguire 饰)忍痛拒绝了他唯一的挚爱玛丽(克尔斯滕•邓斯特 Kirsten Dunst 饰),因为蜘蛛侠的身份会为自己和亲人带来巨大危险,帕克决定独立承担起蜘蛛侠的责任。

  帕克一直在忙于应付各种挑战:学习超能力的灵活运用;在超级英雄与平凡大学生的双重身份下隐藏自我、小心翼翼地生活等等。帕克对玛丽越来越难以自拔,但是作为蜘蛛侠又不能对玛丽展开心扉。

  好友哈利因为误会蜘蛛侠而一直处处与其为作对;唯一的亲人婶婶也对蜘蛛侠的真实身份产生了怀疑。同时,新的挑战又出现了:邪恶而强大的章鱼博士。帕克在种种压力下肩负起蜘蛛侠的使命。

 

版本来源

Spider-Man.2.2004.2160p.BluRay.HEVC.TrueHD.7.1.Atmos-SUPERSIZE (4K UHD 蓝光原盘破解版 2160p  55.22GB)

 

无损封装 封装国语音轨 特效字幕

 

云盘链接:https://www.aliyundrive.com/s/PxCXB5MTnB6

 

 










 

General

Unique ID                      : 50584034715259439819307098454771418374 (0x260E2176A4B3EB96FDF85F0E8804C506)

Complete name                  : D:\影视\蜘蛛侠 系列 国语音轨\蜘蛛侠2 4K 国语音轨\Spider-Man.2.2004.2160p.BluRay.REMUX.HEVC.en&zh.TrueHD.7.1.Atmos.mkv

Format                         : Matroska

Format version                 : Version 4

File size                      : 51.8 GiB

Duration                       : 2 h 7 min

Overall bit rate mode          : Variable

Overall bit rate               : 58.1 Mb/s

Movie name                     : Spider-Man.2.2004.2160p.BluRay.REMUX.HEVC.DTS-HD.MA.TrueHD.7.1.Atmos-FGT

Encoded date                   : UTC 2022-08-02 15:54:32

Writing application            : mkvmerge v69.0.0 ('Day And Age') 64-bit

Writing library                : libebml v1.4.2 + libmatroska v1.6.4

Cover                          : Yes

Attachments                    : cover_land.jpg / small_cover.jpg / small_cover_land.jpg / cover.jpg

 

Video

ID                             : 1

Format                         : HEVC

Format/Info                    : High Efficiency Video Coding

Format profile                 : Main 10@L5.1@High

HDR format                     : SMPTE ST 2086, HDR10 compatible

Codec ID                       : V_MPEGH/ISO/HEVC

Duration                       : 2 h 7 min

Bit rate                       : 48.2 Mb/s

Width                          : 3 840 pixels

Height                         : 2 160 pixels

Display aspect ratio           : 16:9

Frame rate mode                : Constant

Frame rate                     : 23.976 (24000/1001) FPS

Color space                    : YUV

Chroma subsampling             : 4:2:0 (Type 2)

Bit depth                      : 10 bits

Bits/(Pixel*Frame)             : 0.242

Stream size                    : 42.9 GiB (83%)

Default                        : Yes

Forced                         : No

Color range                    : Limited

Color primaries                : BT.2020

Transfer characteristics       : PQ

Matrix coefficients            : BT.2020 non-constant

Mastering display color primar : Display P3

Mastering display luminance    : min: 0.0050 cd/m2, max: 4000 cd/m2

Maximum Content Light Level    : 4471 cd/m2

Maximum Frame-Average Light Le : 1007 cd/m2

 

Audio #1

ID                             : 2

Format                         : MLP FBA 16-ch

Format/Info                    : Meridian Lossless Packing FBA with 16-channel presentation

Commercial name                : Dolby TrueHD with Dolby Atmos

Codec ID                       : A_TRUEHD

Duration                       : 2 h 7 min

Bit rate mode                  : Variable

Bit rate                       : 4 962 kb/s

Maximum bit rate               : 9 234 kb/s

Channel(s)                     : 8 channels

Channel layout                 : L R C LFE Ls Rs Lb Rb

Sampling rate                  : 48.0 kHz

Frame rate                     : 1 200.000 FPS (40 SPF)

Compression mode               : Lossless

Stream size                    : 4.42 GiB (9%)

Language                       : English

Default                        : Yes

Forced                         : No

Number of dynamic objects      : 11

Bed channel count              : 1 channel

Bed channel configuration      : LFE

 

Audio #2

ID                             : 3

Format                         : DTS XLL

Format/Info                    : Digital Theater Systems

Commercial name                : DTS-HD Master Audio

Codec ID                       : A_DTS

Duration                       : 2 h 7 min

Bit rate mode                  : Variable

Bit rate                       : 4 108 kb/s

Channel(s)                     : 8 channels

Channel layout                 : C L R LFE Lb Rb Lss Rss

Sampling rate                  : 48.0 kHz

Frame rate                     : 93.750 FPS (512 SPF)

Bit depth                      : 24 bits

Compression mode               : Lossless

Stream size                    : 3.66 GiB (7%)

Language                       : English

Default                        : No

Forced                         : No

 

Audio #3

ID                             : 4

Format                         : DTS

Format/Info                    : Digital Theater Systems

Codec ID                       : A_DTS

Duration                       : 2 h 7 min

Bit rate mode                  : Constant

Bit rate                       : 754 kb/s

Channel(s)                     : 6 channels

Channel layout                 : C L R Ls Rs LFE

Sampling rate                  : 48.0 kHz

Frame rate                     : 93.750 FPS (512 SPF)

Bit depth                      : 24 bits

Compression mode               : Lossy

Stream size                    : 688 MiB (1%)

Title                          : 国语DTS-5.1

Language                       : Chinese

Default                        : No

Forced                         : No

 

Text #1

ID                             : 5

Format                         : PGS

Codec ID                       : S_HDMV/PGS

Codec ID/Info                  : Picture based subtitle format used on BDs/HD-DVDs

Duration                       : 2 h 1 min

Bit rate                       : 58.5 kb/s

Count of elements              : 3160

Stream size                    : 50.9 MiB (0%)

Title                          : 双语

Default                        : Yes

Forced                         : No

 

Text #2

ID                             : 6

Format                         : PGS

Codec ID                       : S_HDMV/PGS

Codec ID/Info                  : Picture based subtitle format used on BDs/HD-DVDs

Duration                       : 2 h 0 min

Bit rate                       : 11.7 kb/s

Count of elements              : 2172

Stream size                    : 10.1 MiB (0%)

Title                          : 简体中文

Language                       : Chinese

Default                        : No

Forced                         : No

 

Text #3

ID                             : 7

Format                         : PGS

Codec ID                       : S_HDMV/PGS

Codec ID/Info                  : Picture based subtitle format used on BDs/HD-DVDs

Duration                       : 1 h 58 min

Bit rate                       : 18.9 kb/s

Count of elements              : 2230

Stream size                    : 16.1 MiB (0%)

Title                          : R3简体

Language                       : Chinese

Default                        : No

Forced                         : No

 

Menu

00:00:00.000                   : en:Chapter 1

00:08:52.823                   : en:Chapter 2

00:18:29.942                   : en:Chapter 3

00:24:23.712                   : en:Chapter 4

00:31:03.653                   : en:Chapter 5

00:39:07.887                   : en:Chapter 6

00:44:39.009                   : en:Chapter 7

00:53:04.723                   : en:Chapter 8

00:59:36.447                   : en:Chapter 9

01:08:14.423                   : en:Chapter 10

01:13:48.424                   : en:Chapter 11

01:21:24.212                   : en:Chapter 12

01:28:11.869                   : en:Chapter 13

01:37:51.240                   : en:Chapter 14

01:45:28.780                   : en:Chapter 15

01:55:32.926                   : en:Chapter 16

 



免责声明
1,本站所有内容均为站内网盘爱好者分享发布的网盘链接介绍展示帖子,本站不存储任何实质资源数据
2,本文内容仅代表作者本人观点,不代表本网站立场,作者文责自负。
3,本文内所有链接指向的云盘网盘资源,其版权归版权方所有!其实际管理权为帖子发布者所有,本站无法操作相关资源。
4,如您认为本站任何介绍帖侵犯了您的合法版权,请点击 版权投诉 进行投诉,我们将在确认本文链接指向的资源存在侵权后,立即删除相关介绍帖子!
专注高清资源 不停洗版
最新回复 (0)
返回
发 布 分 享
相关资源推荐