8wDlpd.png
8wDFp9.png
8wDEOx.png
8wDMfH.png
8wDKte.png

添加国语音轨 蜘蛛侠 系列3《蜘蛛侠3》4K REMUX 无损封装 封装国语音轨 特效字幕【63.4GB】 欧美 动作 科幻

等级:78 级 78 级 yuntu 13天前 47



fr om w ww.yun pan zi yuan.co m

片  名:      蜘蛛侠3 4k fr om w ww.yun pan zi yuan.co m

电影分类:      动作   科幻   冒险  

国  家:      美国

年  代:      90年代

分 辨 率:      4K(3840x2160)

电影格式:      MKV(REMUX)  

画质标准:      HDR

音质编码:      Dolby-Atmos   Dolby Digital Audio   DTS-HD Master Audio  

电影声道:      7.1声道    5.1声道   

帧数/FPS:      23.976

电影语言:      英文原版

资源大小:      72.62 GB

导  演:      山姆·雷米

剧情简介:      蜘蛛侠(托比•马奎尔 Tobey Maguire 饰)在经历了重重考验之后,成为了人人敬仰的正义英雄,抱得美人归。但是,光环下蜘蛛侠,也有自己的心病:他在第一集时放走了小偷导致最亲爱的叔叔被小偷杀死,帕克一直耿耿于怀。

生活顺意的帕克开始变得目中无人,当他再次抓到那个小偷时,残忍地看着他从楼上摔下致死,过后才发现自己惩罚错了人,真凶是“沙人”。当帕克将“沙人”残忍杀死后,帕克心内的阴暗面渐渐在帕克的身体内占据了上风,蜘蛛侠最终演变成邪恶的“毒蜘蛛”!糟糕的是,帕克没有察觉到自身的变化,帕克最终如何摆脱自身的邪恶

 

版本来源

Spider-Man.3.2007.2160p.BluRay.HEVC.TrueHD.7.1.Atmos-SUPERSIZE (4K UHD 蓝光原盘破解版 2160p   75.16GB)

 

无损封装 封装国语音轨 特效字幕

 

云盘链接:https://www.aliyundrive.com/s/7NapURdd9Fu

 

 










 

General

Unique ID                      : 102104465685036669794549709118844157327 (0x4CD09AD3A3743A1DA5B1342596C7BD8F)

Complete name                  : D:\影视\蜘蛛侠 系列 国语音轨\蜘蛛侠3 4K 国语音轨\Spider-Man.3.2007.2160p.BluRay.REMUX.HEVC.en&zh.TrueHD.7.1.Atmos.mkv

Format                         : Matroska

Format version                 : Version 4

File size                      : 63.4 GiB

Duration                       : 2 h 19 min

Overall bit rate mode          : Variable

Overall bit rate               : 65.2 Mb/s

Movie name                     : Spider-Man.3.2007.2160p.BluRay.REMUX.HEVC.DTS-HD.MA.TrueHD.7.1.Atmos-FGT

Encoded date                   : UTC 2022-08-02 16:05:34

Writing application            : mkvmerge v69.0.0 ('Day And Age') 64-bit

Writing library                : libebml v1.4.2 + libmatroska v1.6.4

Cover                          : Yes

Attachments                    : cover_land.jpg / small_cover.jpg / small_cover_land.jpg / cover.jpg

 

Video

ID                             : 1

Format                         : HEVC

Format/Info                    : High Efficiency Video Coding

Format profile                 : Main 10@L5.1@High

HDR format                     : SMPTE ST 2086, HDR10 compatible

Codec ID                       : V_MPEGH/ISO/HEVC

Duration                       : 2 h 19 min

Bit rate                       : 54.5 Mb/s

Width                          : 3 840 pixels

Height                         : 2 160 pixels

Display aspect ratio           : 16:9

Frame rate mode                : Constant

Frame rate                     : 23.976 (24000/1001) FPS

Color space                    : YUV

Chroma subsampling             : 4:2:0 (Type 2)

Bit depth                      : 10 bits

Bits/(Pixel*Frame)             : 0.274

Stream size                    : 53.0 GiB (84%)

Default                        : Yes

Forced                         : No

Color range                    : Limited

Color primaries                : BT.2020

Transfer characteristics       : PQ

Matrix coefficients            : BT.2020 non-constant

Mastering display color primar : R: x=0.000000 y=0.000000, G: x=0.000000 y=0.000000, B: x=0.000000 y=0.000000, White point: x=0.000000 y=0.000000

Mastering display luminance    : min: 0.0000 cd/m2, max: 0 cd/m2

 

Audio #1

ID                             : 2

Format                         : MLP FBA 16-ch

Format/Info                    : Meridian Lossless Packing FBA with 16-channel presentation

Commercial name                : Dolby TrueHD with Dolby Atmos

Codec ID                       : A_TRUEHD

Duration                       : 2 h 19 min

Bit rate mode                  : Variable

Bit rate                       : 4 852 kb/s

Maximum bit rate               : 3 018 kb/s

Channel(s)                     : 8 channels

Channel layout                 : L R C LFE Ls Rs Lb Rb

Sampling rate                  : 48.0 kHz

Frame rate                     : 1 200.000 FPS (40 SPF)

Compression mode               : Lossless

Stream size                    : 4.72 GiB (7%)

Language                       : English

Default                        : Yes

Forced                         : No

Number of dynamic objects      : 11

Bed channel count              : 1 channel

Bed channel configuration      : LFE

 

Audio #2

ID                             : 3

Format                         : DTS XLL

Format/Info                    : Digital Theater Systems

Commercial name                : DTS-HD Master Audio

Codec ID                       : A_DTS

Duration                       : 2 h 19 min

Bit rate mode                  : Variable

Bit rate                       : 4 059 kb/s

Channel(s)                     : 8 channels

Channel layout                 : C L R LFE Lb Rb Lss Rss

Sampling rate                  : 48.0 kHz

Frame rate                     : 93.750 FPS (512 SPF)

Bit depth                      : 24 bits

Compression mode               : Lossless

Stream size                    : 3.95 GiB (6%)

Language                       : English

Default                        : No

Forced                         : No

 

Audio #3

ID                             : 4

Format                         : DTS

Format/Info                    : Digital Theater Systems

Codec ID                       : A_DTS

Duration                       : 2 h 19 min

Bit rate mode                  : Constant

Bit rate                       : 1 510 kb/s

Channel(s)                     : 6 channels

Channel layout                 : C L R Ls Rs LFE

Sampling rate                  : 48.0 kHz

Frame rate                     : 93.750 FPS (512 SPF)

Bit depth                      : 24 bits

Compression mode               : Lossy

Delay relative to video        : 2 s 6 ms

Stream size                    : 1.47 GiB (2%)

Title                          : 国语DTS-5.1

Language                       : Chinese

Default                        : No

Forced                         : No

 

Text #1

ID                             : 5

Format                         : PGS

Codec ID                       : S_HDMV/PGS

Codec ID/Info                  : Picture based subtitle format used on BDs/HD-DVDs

Duration                       : 2 h 9 min

Bit rate                       : 18.8 kb/s

Count of elements              : 2162

Stream size                    : 17.4 MiB (0%)

Title                          : 国配简体

Language                       : Chinese

Default                        : No

Forced                         : No

 

Text #2

ID                             : 6

Format                         : PGS

Codec ID                       : S_HDMV/PGS

Codec ID/Info                  : Picture based subtitle format used on BDs/HD-DVDs

Duration                       : 2 h 11 min

Bit rate                       : 19.1 kb/s

Count of elements              : 2687

Stream size                    : 18.0 MiB (0%)

Title                          : 简体特效

Language                       : Chinese

Default                        : No

Forced                         : No

 

Text #3

ID                             : 7

Format                         : PGS

Codec ID                       : S_HDMV/PGS

Codec ID/Info                  : Picture based subtitle format used on BDs/HD-DVDs

Duration                       : 2 h 11 min

Bit rate                       : 30.7 kb/s

Count of elements              : 2484

Stream size                    : 28.9 MiB (0%)

Title                          : 简英特效

Language                       : Chinese

Default                        : No

Forced                         : No

 

Text #4

ID                             : 8

Format                         : PGS

Codec ID                       : S_HDMV/PGS

Codec ID/Info                  : Picture based subtitle format used on BDs/HD-DVDs

Duration                       : 2 h 12 min

Bit rate                       : 108 kb/s

Count of elements              : 5902

Stream size                    : 102 MiB (0%)

Title                          : 双语

Default                        : Yes

Forced                         : No

 

Menu

00:00:00.000                   : en:Chapter 1

00:07:59.812                   : en:Chapter 2

00:16:55.055                   : en:Chapter 3

00:24:44.983                   : en:Chapter 4

00:30:12.685                   : en:Chapter 5

00:40:08.531                   : en:Chapter 6

00:49:24.586                   : en:Chapter 7

00:59:27.772                   : en:Chapter 8

01:06:34.573                   : en:Chapter 9

01:15:23.435                   : en:Chapter 10

01:22:16.723                   : en:Chapter 11

01:30:17.829                   : en:Chapter 12

01:40:46.373                   : en:Chapter 13

01:49:10.835                   : en:Chapter 14

01:59:57.148                   : en:Chapter 15

02:06:11.355                   : en:Chapter 16



免责声明
1,本站所有内容均为站内网盘爱好者分享发布的网盘链接介绍展示帖子,本站不存储任何实质资源数据
2,本文内容仅代表作者本人观点,不代表本网站立场,作者文责自负。
3,本文内所有链接指向的云盘网盘资源,其版权归版权方所有!其实际管理权为帖子发布者所有,本站无法操作相关资源。
4,如您认为本站任何介绍帖侵犯了您的合法版权,请点击 版权投诉 进行投诉,我们将在确认本文链接指向的资源存在侵权后,立即删除相关介绍帖子!
专注高清资源 不停洗版
最新回复 (1)
  • 等级:78 级 78 级 yuntu 楼主 13天前
    引用 2

    预告  上传中 《铁血战士》系列1-4  4K REMUX 封装国语音轨  双语等特效字幕














返回
发 布 分 享
相关资源推荐