8wDlpd.png
8wDFp9.png
8wDEOx.png
8wDMfH.png
8wDKte.png

洗码 速存 和谐不再补 时空三部曲 之 《海上钢琴师》《西西里的美丽传说》1080P原盘REMUX 皆为未删减加长版 【32.8GB】【25GB】 欧美 爱情 其他

等级:78 级 78 级 yuntu 2月前 240



fr om w ww.yun pan zi yuan.co m

片名:海上钢琴师 fr om w ww.yun pan zi yuan.co m

导演: 朱塞佩·托纳多雷

编剧: 亚利桑德罗·巴里克 / 朱塞佩·托纳多雷

主演: 蒂姆·罗斯 / 普路特·泰勒·文斯 / 比尔·努恩 / 克兰伦斯·威廉姆斯三世 / 梅兰尼·蒂埃里 / 更多...

类型: 剧情 / 音乐

制片国家/地区: 意大利

语言: 英语 / 法语 / 意大利语

上映日期: 2019-11-15(中国大陆) / 1998-10-28(意大利)

片长: 169分钟(加长版)

 

片名:西西里的美丽传说

导演: 朱塞佩·托纳多雷

编剧: 朱塞佩·托纳多雷 / 卢恰诺·温琴佐尼

主演: 莫妮卡·贝鲁奇 / 朱塞佩·苏尔法罗 / Luciano Federico / 玛蒂尔德·皮亚纳 / Pietro Notarianni / 更多...

类型: 剧情 / 情色 / 战争

制片国家/地区: 意大利 / 美国

语言: 意大利语 / 英语 / 拉丁语 / 古希腊语

上映日期: 2000-10-27(意大利)

片长: 109 分钟

 

版本来源

《海上钢琴师》 169分钟加长版

The.Legend.of.1900.1998.1080p.BluRay.REMUX.VC-1.DTS-HD.MA.5.1-FGT169分钟加长版 33.42GB

提取封装后为 【32.8GB

 

《西西里的美丽传说》109分钟 未删减版

Malena.2000.UNCUT.BluRay.1080p.AVC.DTS-HD.MA5.1-shhaclm@CHDBits【未删减原盘36.6GB

提取封装后为【25GB

 

无损封装 去除多余音轨 内封双语字幕

 

皆为未删减加长版 恐和谐 速存 和谐不补

 

《海上钢琴师》

云盘链接:https://www.aliyundrive.com/s/irYm5mHZWjX

《西西里的美丽传说》

云盘2次和谐 已被警告,百度压缩包自行下载

西西里的美丽传说

百度链接https://pan.baidu.com/s/1ibd01ZSM80mRqWRMHlvkdw 

提取码:jrko

 

海上钢琴师

General

Unique ID                      : 333087215631576930618841320014479987547 (0xFA9643A70CFE386B1E5023592E29935B)

Complete name                  : D:\影视\时空三部曲\海上钢琴师 1080P 原盘 REMUX\The.Legend.of.1900.1998.1080p.BluRay.REMUX.VC-1.DTS-HD.MA.5.1.mkv

Format                         : Matroska

Format version                 : Version 4

File size                      : 32.8 GiB

Duration                       : 2 h 49 min

Overall bit rate mode          : Variable

Overall bit rate               : 27.7 Mb/s

Movie name                     : The.Legend.of.1900.1998.1080p.BluRay.REMUX.VC-1.DTS-HD.MA.5.1-FGT

Encoded date                   : UTC 2022-06-05 01:59:59

Writing application            : mkvmerge v63.0.0 ('Everything') 64-bit

Writing library                : libebml v1.4.2 + libmatroska v1.6.4

IsTruncated                    : Yes

 

Video

ID                             : 1

ID in the original source medi : 4113 (0x1011)

Format                         : VC-1

Format profile                 : Advanced@L3

Codec ID                       : V_MS/VFW/FOURCC / WVC1

Codec ID/Hint                  : Microsoft

Duration                       : 2 h 49 min

Bit rate                       : 23.6 Mb/s

Width                          : 1 920 pixels

Height                         : 1 080 pixels

Display aspect ratio           : 16:9

Frame rate mode                : Constant

Frame rate                     : 23.976 (24000/1001) FPS

Color space                    : YUV

Chroma subsampling             : 4:2:0

Bit depth                      : 8 bits

Scan type                      : Progressive

Compression mode               : Lossy

Bits/(Pixel*Frame)             : 0.475

Stream size                    : 28.0 GiB (85%)

Language                       : English

Default                        : No

Forced                         : No

Original source medium         : Blu-ray

西西里的美丽传说

General

Unique ID                      : 119695021687275026557113172946208746517 (0x5A0C6C3289EC16AF9E5620B184C8EC15)

Complete name                  : D:\影视\时空三部曲\西西里的美丽传说  1080P 原盘 REMUX\Malena.2000.Uncut.Blu-ray.1080p.AVC.DTS-HD.MA5.1-CM.mkv

Format                         : Matroska

Format version                 : Version 4

File size                      : 25.0 GiB

Duration                       : 1 h 48 min

Overall bit rate mode          : Variable

Overall bit rate               : 33.1 Mb/s

Encoded date                   : UTC 2021-06-06 05:00:22

Writing application            : mkvmerge v46.0.0 ('No Deeper Escape') 64-bit

Writing library                : libebml v1.3.10 + libmatroska v1.5.2

IsTruncated                    : Yes

 

Video

ID                             : 1

ID in the original source medi : 4113 (0x1011)

Format                         : AVC

Format/Info                    : Advanced Video Codec

Format profile                 : High@L4.1

Format settings                : CABAC / 4 Ref Frames

Format settings, CABAC         : Yes

Format settings, Reference fra : 4 frames

Codec ID                       : V_MPEG4/ISO/AVC

Duration                       : 1 h 48 min

Bit rate mode                  : Variable

Bit rate                       : 29.6 Mb/s

Maximum bit rate               : 32.0 Mb/s

Width                          : 1 920 pixels

Height                         : 1 080 pixels

Display aspect ratio           : 16:9

Frame rate mode                : Constant

Frame rate                     : 23.976 (24000/1001) FPS

Standard                       : NTSC

Color space                    : YUV

Chroma subsampling             : 4:2:0

Bit depth                      : 8 bits

Scan type                      : Progressive

Bits/(Pixel*Frame)             : 0.595

Stream size                    : 22.3 GiB (89%)

Default                        : Yes

Forced                         : No

Color range                    : Limited

Color primaries                : BT.709

Transfer characteristics       : BT.709

Matrix coefficients            : BT.709

Original source medium         : Blu-ray



免责声明
1,本站所有内容均为站内网盘爱好者分享发布的网盘链接介绍展示帖子,本站不存储任何实质资源数据
2,本文内容仅代表作者本人观点,不代表本网站立场,作者文责自负。
3,本文内所有链接指向的云盘网盘资源,其版权归版权方所有!其实际管理权为帖子发布者所有,本站无法操作相关资源。
4,如您认为本站任何介绍帖侵犯了您的合法版权,请点击 版权投诉 进行投诉,我们将在确认本文链接指向的资源存在侵权后,立即删除相关介绍帖子!
专注高清资源 不停洗版
最新回复 (2)
  • 等级:78 级 78 级 yuntu 楼主 2月前
    引用 2


    《西西里的美丽传说》

    「2000」《西西里的美丽传说》洗码 改名 速存 和谐不再补

    https://www.aliyundrive.com/s/tS6JRikxF2i


  • 等级:78 级 78 级 yuntu 楼主 2月前
    引用 3


    云盘2次和谐 已被警告,百度压缩包自行下载

    西西里的美丽传说

    百度链接:https://pan.baidu.com/s/1ibd01ZSM80mRqWRMHlvkdw

    提取码:jrko


返回